Inicio > Peliculas > Crepúsculo la saga todas las peliculas en hf 1080p

Crepúsculo la saga todas las peliculas en hf 1080p

Sábado, 10 de diciembre de 2011 Dejar un comentario Ir a comentarios

amigos aqui les traigo todas las peliculas de la saga crepusculo bueno comenzemos

Twilight (2008)

Formato: Matroska
Tamaño del archivo: 4.3GB
Duración: 2hrs
Idioma: Ingles, Español
Subtitulos: Español (Por si se necesitan) ———————–> http://rapidshare.com/files/259631505/Twilight.srt
Pass: -dramah- (Gracias a mi amigo por los links)

Screenshots


link

http://www.megaupload.com/?d=I3QU6JOT

estan en un txt

la segunda

Crepúsculo la saga: Luna nueva (Latino) Bluray 1080p

File size : 3.8 GB
Compatible : PS3 , Xbox 360 ,PC

Video
Format : AVC – M2TS
Format profile : High@L4.0
Duration : 2h 10mn
Bit rate : 3455 Kbps
Resolucion : 1920 x 1080 pixels
Display aspect ratio : 16:9
Frame rate : 23.976 fps
Stream size : 3.21 GiB (85%)

Audio
Format : AC-3
Bit rate : 448 Kbps
Channel(s) : 5.1 channels Dolby @ Digital
Sampling rate : 48.0 KHz
Stream size : 419 MiB (11%)
Language : Español Latino

Argumento

Bella celebra su cumpleaños 18 en la casa de los Cullen con Edward y su familia. Al momento de abrir un regalo se corta con el filo del papel, esa exposición de sangre despierta el instinto asesino de Jasper. Edward se siente obligado a terminar su relación y así evitar poner en peligro su vida, por lo que él y su familia se marchan de Forks.

Tras el abandono y la ruptura de Edward, Bella se sumerge en una terrible depresión y sólo encuentra consuelo en su fiel amigo Jacob Black el cual se empieza a enamorar de ella. A su lado comparte una nueva afición por las actividades extremas, éstas disparan sus niveles de adrenalina y le producen alucinaciones que le hacen sentir la presencia de Edward. Pero Jacob también guarda un secreto: pertenece a la manada de licántropos, enemigos ancestrales de los vampiros, lo que pondrá a prueba su lealtad.

Capturas

link

http://www.mediafire.com/?y2w254mk36keepc#2

estan en un txt

la tercera

Saga Crepúsculo: Eclipse (1080p)

Sinopsis

Bella Swan (Kristen Stewart) vuelve a encontrarse rodeada de peligros, mientras Seattle se ve asolada por una oleada de misteriosos asesinatos y una maliciosa vampira prosigue su búsqueda de venganza. En medio de todo eso, Bella se ve obligada a elegir entre su amor por Edward Cullen (Robert Pattinson) y su amistad con Jacob Black (Taylor Lautner), perfectamente consciente de que su decisión tiene muchas posibilidades de exacerbar la eterna rivalidad entre vampiros y hombres lobo. Con su graduación cada vez más próxima, Bella no tiene más remedio que afrontar la decisión más importante de su vida.

Video

Format : AVC – M2TS
Duration : 2h 3mn
Bit rate : 4019 Kbps
Resolution : 1920 x 1080 pixels
Display aspect ratio : 16:9
Frame rate : 23.976 fps
Stream size : 3.53 GiB (86%)

Audio

Format : AC-3
Bit rate : 448 Kbps
Channel(s) : 6 channels
Sampling rate : 48.0 KHz
Stream size : 397 MiB (9%)
Language : Español Latino

link

http://www.mediafire.com/?kf739ek7q68idu3#2

estan en un txt

Pass: www.Gojula.net

y la ultima

amanecer parte 1

Titulo: La saga Crepúsculo: Amanecer – Parte 1
Titulo Original: The Twilight saga: Breaking dawn – Part 1
Genero: Drama, fantástico,romance
Año De Produccion: 2011
Calidad: TS-Screener (Buena Calidad)
Audio: Latino
Links: 4
Peso:1.70Gb.
Contraseña: zona-descarga.net
Servidor: Rapidshare

Descarga:

http://www.mediafire.com/?i98xvhcejta0u9r#2

estan en un txt

VN:F
Rating: 10.0/10 (1 vote cast)
VN:F
Rating: +1 (from 1 vote)
Crepúsculo la saga todas las peliculas en hf 1080p, 10.0 out of 10 based on 1 rating peliculas de crepusculo todas, imagenes de todas las peliculas de la saga crepusculo, crecucpulo todas las peliculas
Categories: Peliculas Tags: , ,

  1. Sin comentarios aún.


8 − = dos