Inicio > Peliculas > Descargar La saga Crepúsculo Amanecer Parte 1 [CamRip][Castellano][Fantástico/Vampiros][2011]

Descargar La saga Crepúsculo Amanecer Parte 1 [CamRip][Castellano][Fantástico/Vampiros][2011]

Sábado, 19 de noviembre de 2011 Dejar un comentario Ir a comentarios

La saga Crepúsculo: Amanecer Parte 1


TÍTULO ORIGINAL The Twilight saga: Breaking dawn – Part 1
AÑO 2011
DURACIÓN 117 min.
PAÍS
DIRECTOR Bill Condon
GUIÓN Melissa Rosenberg (Novela: Stephenie Meyer)
MÚSICA Carter Burwell
FOTOGRAFÍA Guillermo Navarro
REPARTO Kristen Stewart, Robert Pattinson, Taylor Lautner, Anna Kendrick, Peter Facinelli, Dakota Fanning, Ashley Greene, Jackson Rathbone, Nikki Reed, Kellan Lutz, Peter Facinelli, Elizabeth Reaser, Christian Serratos, Billy Burke, Boo Boo Stewart, Sarah Clarke, Michael Welch, Julia Jones, Kiowa Gordon, Alex Meraz, Gil Birmingham
PRODUCTORA Summit Entertainment / Temple Hill / Sunswept Entertainment
GÉNERO Fantástico. Romance. Thriller | Vampiros. Hombres lobo. Secuela

SINOPSIS
Para siempre es solo el comienzo. “La saga Crepúsculo: Amanecer – Parte 1″ arroja luz sobre los secretos y misterios de este romance épico que ha cautivado a millones de personas en todo el mundo. En este nuevo capítulo, los protagonistas Bella Swan y Edward Cullen tendrán que hacer frente junto a sus seres queridos a la cadena de acontecimientos ocasionados por su boda, su romántica luna de miel y el nacimiento de su primera hija… que trae consigo una imprevista y sorprendente consecuencia para Jacob Black.

DATOS DEL VIDEO:

Calidad CamRip
Codec de Video: XviD – 25,000fps
Formato: Avi
Tamaño: 1,32 GB
Resolucion: 640×288
Duracion: 01:45
Pista Audio 1: Mic 256 Kbps Castellano


Código:

General

Format : AVI
Format/Info : Audio Video Interleave
File size : 1.32 GiB
Duration : 1h 45mn
Overall bit rate : 1 794 Kbps
Writing application : VirtualDubMod 1.5.10.3 | VirtualDub-Fr.org || (build 2550/release)
Writing library : VirtualDubMod build 2550/release

Video
ID : 0
Format : MPEG-4 Visual
Format profile : Advanced Simple@L5
Format settings, BVOP : 2
Format settings, QPel : No
Format settings, GMC : No warppoints
Format settings, Matrix : Default (H.263)
Muxing mode : Packed bitstream
Codec ID : XVID
Codec ID/Hint : XviD
Duration : 1h 45mn
Bit rate : 1 458 Kbps
Width : 640 pixels
Height : 288 pixels
Display aspect ratio : 2.222
Frame rate : 25.000 fps
Color space : YUV
Chroma subsampling : 4:2:0
Bit depth : 8 bits
Scan type : Progressive
Compression mode : Lossy
Bits/(Pixel*Frame) : 0.316
Stream size : 1.07 GiB (81%)
Writing library : XviD 64

Audio
ID : 1
Format : MPEG Audio
Format version : Version 1
Format profile : Layer 3
Codec ID : 55
Codec ID/Hint : MP3
Duration : 1h 45mn
Bit rate mode : Constant
Bit rate : 256 Kbps
Channel(s) : 2 channels
Sampling rate : 44.1 KHz
Compression mode : Lossy
Stream size : 192 MiB (14%)
Alignment : Split accross interleaves

TRAILER:

+ YouTube Video
ERROR: If you can see this, then YouTube is down or you don’t have Flash installed.


CAPTURA DE IMAGEN:

DESCARGA:



http://www.fileserve.com/file/7YPkerS



http://www.uploadstation.com/file/nX4k4Fw


los enlaces estan respaldados, así que si los borran
me dejan un msj privado
y los vuelvo a subir,gracias.

VN:F
Rating: 1.0/10 (1 vote cast)
VN:F
Rating: 0 (from 0 votes)
Descargar La saga Crepúsculo Amanecer Parte 1 , 1.0 out of 10 based on 1 rating

  1. Martes, 4 de diciembre de 2012 a las 08:48 | #1

    A motivating discussion is worth comment. I do believe that
    you ought to publish more about this issue, it may not be a taboo matter but usually people
    do not discuss such subjects. To the next! All the best!
    !

    VA:F [1.9.20_1166]
    Rating: 0.0/5 (0 votes cast)
    VA:F [1.9.20_1166]
    Rating: 0 (from 0 votes)
  2. Miércoles, 5 de diciembre de 2012 a las 00:31 | #2

    Do you have a spam issue on this website; I also am a blogger, and I was curious
    about your situation; we have developed some nice methods and
    we are looking to exchange techniques with other folks, please shoot me an e-mail
    if interested.

    VA:F [1.9.20_1166]
    Rating: 0.0/5 (0 votes cast)
    VA:F [1.9.20_1166]
    Rating: 0 (from 0 votes)
  3. Miércoles, 26 de diciembre de 2012 a las 15:16 | #3

    This info is worth everyone’s attention. Where can I find out more?

    VA:F [1.9.20_1166]
    Rating: 0.0/5 (0 votes cast)
    VA:F [1.9.20_1166]
    Rating: 0 (from 0 votes)
  4. Miércoles, 2 de enero de 2013 a las 20:15 | #4

    I absolutely love your blog and find almost all of your
    post’s to be just what I’m looking for. can you offer guest writers to write content available for you?
    I wouldn’t mind creating a post or elaborating on many of the subjects you write with regards to here. Again, awesome weblog!

    VA:F [1.9.20_1166]
    Rating: 0.0/5 (0 votes cast)
    VA:F [1.9.20_1166]
    Rating: 0 (from 0 votes)
  5. Jueves, 24 de enero de 2013 a las 06:16 | #5

    Hello, after reading this amazing article i am too cheerful to share
    my familiarity here with friends.

    VA:F [1.9.20_1166]
    Rating: 0.0/5 (0 votes cast)
    VA:F [1.9.20_1166]
    Rating: 0 (from 0 votes)
  6. Domingo, 3 de febrero de 2013 a las 21:07 | #6

    I am really enjoying the theme/design of your site. Do you
    ever run into any browser compatibility issues? A small number
    of my blog readers have complained about my site not operating correctly
    in Explorer but looks great in Chrome. Do you have any tips to help fix this problem?

    VA:F [1.9.20_1166]
    Rating: 0.0/5 (0 votes cast)
    VA:F [1.9.20_1166]
    Rating: 0 (from 0 votes)
  1. Sin trackbacks aún.


+ dos = 11