Inicio > Peliculas > El mago de Oz(1939)720p-Dual.Spa-Eng.[Mi Subida.] Mediafire

El mago de Oz(1939)720p-Dual.Spa-Eng.[Mi Subida.] Mediafire

Martes, 1 de mayo de 2012 Dejar un comentario Ir a comentarios

The Wizard of Oz/El Mago de Oz.


Info:
El mago de Oz (1939) es una película musical de fantasía producida por Metro-Goldwyn-Mayer, aunque ahora Time Warner posee los derechos de la película. Contó con las actuaciones de Judy Garland, Frank Morgan, Ray Bolger, Jack Haley, Bert Lahr, Billie Burke y Margaret Hamilton. En la actualidad, es considerada una película de culto, a pesar de su proyecto inicial como fábula cinematográfica infantil.
La cinta está basada en la novela infantil El maravilloso mago de Oz de L. Frank Baum, en la cual una joven estadounidense es arrastrada por un tornado en el estado de Kansas y dejada en una fantástica tierra donde habitan brujas buenas y malas, un espantapájaros que habla, un león cobarde, un hombre de hojalata y otros seres extraordinarios.

Ficha Técnica:

General
Complete name : H:The.Wizard.Of.Oz.1939.720p.BluRay.x264-SiNNERS-2polopolo2.mkv
Format : Matroska
Format version : Version 2
File size : 4.51 GiB
Duration : 1h 41mn
Overall bit rate : 6 344 Kbps
Encoded date : UTC 2012-04-29 19:24:55
Writing application : mkvmerge v5.5.0 (‘Healer’) built on Apr 6 2012 21:43:24
Writing library : libebml v1.2.3 + libmatroska v1.3.0

Video
ID : 1
Format : AVC
Format/Info : Advanced Video Codec
Format profile : High@L3.1
Format settings, CABAC : Yes
Format settings, ReFrames : 5 frames
Codec ID : V_MPEG4/ISO/AVC
Duration : 1h 41mn
Bit rate : 5 511 Kbps
Width : 992 pixels
Height : 720 pixels
Display aspect ratio : 1.378
Frame rate : 23.976 fps
Color space : YUV
Chroma subsampling : 4:2:0
Bit depth : 8 bits
Scan type : Progressive
Bits/(Pixel*Frame) : 0.322
Stream size : 3.83 GiB (85%)
Writing library : x264 core 76 r1271 496d79d
Language : English
Default : Yes
Forced : No

Audio #1
ID : 2
Format : AC-3
Format/Info : Audio Coding 3
Mode extension : CM (complete main)
Format settings, Endianness : Big
Codec ID : A_AC3
Duration : 1h 41mn
Bit rate mode : Constant
Bit rate : 192 Kbps
Channel(s) : 1 channel
Channel positions : Front: C
Sampling rate : 48.0 KHz
Bit depth : 16 bits
Compression mode : Lossy
Stream size : 140 MiB (3%)
Language : Spanish
Default : Yes
Forced : No

Audio #2
ID : 3
Format : AC-3
Format/Info : Audio Coding 3
Mode extension : CM (complete main)
Format settings, Endianness : Big
Codec ID : A_AC3
Duration : 1h 41mn
Bit rate mode : Constant
Bit rate : 640 Kbps
Channel(s) : 6 channels
Channel positions : Front: L C R, Side: L R, LFE
Sampling rate : 48.0 KHz
Bit depth : 16 bits
Compression mode : Lossy
Stream size : 466 MiB (10%)
Language : English
Default : No
Forced : No

Capturas:

Password para los .RAR: 2polopolo2

Links protejidos por Safelinking(para que no se caigan tan rapido.)

LINKS:

Contenedor DLC:

http://www.mediafire.com/?v9hv7xia9hrlccp

VN:F
Rating: 10.0/10 (1 vote cast)
VN:F
Rating: +1 (from 1 vote)
El mago de Oz(1939)720p-Dual.Spa-Eng. Mediafire, 10.0 out of 10 based on 1 rating descargar pelicula el mago de oz, descargar el mago de oz pelicula, el mago de oz pelicula descargar, descargar pelicula mago de oz, el mago de oz pelicula, el mago de oz descargar pelicula, descargar el mago de oz latino, el mago de oz 720p latino, el mago de oz mediafire, the wizard of oz mediafire
Categories: Peliculas Tags: , , ,

  1. Fabian
    Miércoles, 29 de agosto de 2012 a las 13:10 | #1

    Por fa arreglen el link de mediafire para bajar la peli plis :)

    VA:F [1.9.20_1166]
    Rating: 0.0/5 (0 votes cast)
    VA:F [1.9.20_1166]
    Rating: 0 (from 0 votes)


+ 6 = trece