Inicio > Peliculas > Infestation [2009][DVDRip][Castellano][Acción][WU 1 Link]

Infestation [2009][DVDRip][Castellano][Acción][WU 1 Link]

Domingo, 13 de noviembre de 2011 Dejar un comentario Ir a comentarios




Descargar:


Wupload:

1 link:

http://www.wupload.com/file/1911936112

Recomiendo usar JDownloader para la descarga.
Por favor, si se caen los links avísame por mp y los vuelvo a subir.


Sinopsis:
Nuestro heroe, Cooper, despierta con nauseas, debil y cubierto de telarañas colgando del techo de la oficina donde minutos antes iba a comenzar un nuevo trabajo. Al escapar de su viscosa prision se encuentra cara a cara con un enorme escarabajo. Cooper encontrara a un variopinto grupo de supervivientes entre los que se encuentra la atractiva Sara con la que tratara de intimar. Mezclando la comedia con las peliculas catastroficas en las que una raza alienigena acaba con toda la humanidad, Infestation, cuenta las aventuras y desventuras de Cooper junto a un grupo de supervivientes que se ven rodeados de bichos de desproporcionado tamaño y la facultad de poder contagiar a cualquiera que sea picado por los insectos.


Información:
Titulo original: Infestation
Año: 2009
Paises: USA
Genero: Comedia – Acción – Terror
Duracion: 91 minutos
Calificacion moral: Mayores 18 años
Director: Kyle Rankin
Productor: Jeff Balis, Bruce Davey, Rhoades Rader y T.J. Sakasegawa
Guion: Kyle Rankin
Fotografia: Thomas E. Ackerman
Musica: Steven Gutheinz
Montaje: David Finfer

MediaInfo:
Código:

Format : AVI
Format/Info : Audio Video Interleave
File size : 964 MiB
Duration : 1h 32mn
Overall bit rate : 1 451 Kbps

Video
ID : 0
Format : MPEG-4 Visual
Format profile : Advanced Simple@L5
Format settings, BVOP : 3
Format settings, QPel : No
Format settings, GMC : No warppoints
Format settings, Matrix : Default (H.263)
Codec ID : XVID
Codec ID/Hint : XviD
Duration : 1h 32mn
Bit rate : 1 250 Kbps
Width : 720 pixels
Height : 384 pixels
Display aspect ratio : 1.875
Frame rate : 25.000 fps
Color space : YUV
Chroma subsampling : 4:2:0
Bit depth : 8 bits
Scan type : Progressive
Compression mode : Lossy
Bits/(Pixel*Frame) : 0.181
Stream size : 830 MiB (86%)
Writing library : XviD 1.1.2 (UTC 2006-11-01)

Audio
ID : 1
Format : AC-3
Format/Info : Audio Coding 3
Mode extension : CM (complete main)
Codec ID : 2000
Duration : 1h 32mn
Bit rate mode : Constant
Bit rate : 192 Kbps
Channel(s) : 2 channels
Channel positions : Front: L R
Sampling rate : 48.0 KHz
Bit depth : 16 bits
Compression mode : Lossy
Stream size : 128 MiB (13%)
Alignment : Aligned on interleaves
Interleave, duration : 40 ms (1.00 video frame)


Capturas reales:

VN:F
Rating: 0.0/10 (0 votes cast)
VN:F
Rating: 0 (from 0 votes)

  1. Sin comentarios aún.
  1. Sin trackbacks aún.


5 − = tres