Inicio > Peliculas > La Guerra de los Mundos 1953 Audio Ingles Sub. Español

La Guerra de los Mundos 1953 Audio Ingles Sub. Español

Viernes, 18 de enero de 2013 Dejar un comentario Ir a comentarios

Un aporte mas de ALVACELNET, una pelicula que ya tenia rato que no pasaban en la tv. Pero sin mas aqui esta para descargar.
=======================================================================
Click sobre la Imagen para ver todos los links

=======================================================================
Complete name : La Guerra de los Mundos
Format : AVI
Format/Info : Audio Video Interleave
File size : 642 MiB
Duration : 1h 25mn
Overall bit rate : 1 052 Kbps
SINOPSIS Cerca de un pequeño pueblo de Estados Unidos cae algo que, a primera vista, parece ser un meteorito. Los vecinos acuden al lugar del acontecimiento y descubren que un extraño objeto de que emerge una especie de ojo que empieza a disparar un rayo mortal. Es una nave marciana que, junto con otras muchas, ha llegado a la Tierra para conquistarla. La invasión está teniendo lugar simultáneamente en todo el planeta y ni siquiera la bomba atómica podría detenerla. La humanidad está perdida.
=========================================================================
CAPTURAS





=========================================================================
DESCARGAS

La Guerra de los Mundos Por ALVACELNET.part 01
La Guerra de los Mundos Por ALVACELNET.part 02
La Guerra de los Mundos Por ALVACELNET.part 03
La Guerra de los Mundos Por ALVACELNET.part 04
La Guerra de los Mundos Por ALVACELNET.part 05
La Guerra de los Mundos Por ALVACELNET.part 06
La Guerra de los Mundos Por ALVACELNET.part 07
=========================================================================
INFORMACION DEL VIDEO
General
Complete name : La Guerra de los Mundos
Format : AVI
Format/Info : Audio Video Interleave
File size : 642 MiB
Duration : 1h 25mn
Overall bit rate : 1 052 Kbps

Video
ID : 0
Format : MPEG-4 Visual
Format settings, Matrix : Default (H.263)

Codec ID/Hint : DivX 5
Duration : 1h 25mn
Bit rate : 851 Kbps
Width : 720 pixels
Height : 406 pixels
Display aspect ratio : 16:9
Frame rate : 25.000 fps

Bit depth : 8 bits
Scan type : Progressive
Compression mode : Lossy
Bits/(Pixel*Frame) : 0.116
Stream size : 519 MiB (81%)
Title : Video
Writing library : DivX 2682

Audio
ID : 1
Format : MPEG Audio
Format version : Version 1
Format profile : Layer 3
Mode : Joint stereo
Mode extension : MS Stereo

Codec ID/Hint : MP3
Duration : 1h 25mn
Bit rate mode : Constant
Bit rate : 192 Kbps
Channel(s) : 2 channels
Sampling rate : 48.0 KHz

Stream size : 117 MiB (18%)

Interleave, duration : 40 ms (1.00 video frame)
Interleave, preload duration : 500 ms
Title : Audio

VN:F
Rating: 0.0/10 (0 votes cast)
VN:F
Rating: 0 (from 0 votes)

  1. Viernes, 18 de enero de 2013 a las 23:37 | #1

    I’ll immediately snatch your rss feed as I can not in finding your email subscription hyperlink or newsletter service. Do you’ve any? Kindly let me understand so that I may subscribe. Thanks.
    cheap louis vuitton purses http://www.cheaplouisvuittonbagsfr.com/

    VA:F [1.9.20_1166]
    Rating: 0.0/5 (0 votes cast)
    VA:F [1.9.20_1166]
    Rating: 0 (from 0 votes)


ocho − = 0