Inicio > Peliculas > Que paso ayer en audio latino (MF)

Que paso ayer en audio latino (MF)

Domingo, 1 de abril de 2012 Dejar un comentario Ir a comentarios

Que paso ayer.

dijo:

Que buena peli me cague de risa todo el tiempo…….jajaj


link: http://www.youtube.com/watch?v=cX2mC6cgV1U&feature=player_embedded


Dos días antes de su boda, Doug viaja en coche a Las Vegas con sus mejores amigos, Phil y Stu, y su futuro cuñado, Alan, para celebrar un fiestón de despedida. A la mañana siguiente, los tres amigos del novio se despiertan con una fuerte resaca y no recuerdan nada de lo sucedido durante la juerga nocturna. La suite del hotel está hecha un desastre y el novio no aparece por ninguna parte. Sin ninguna pista de lo sucedido y con poco tiempo que perder, los tres deben intentar recordar qué pasó la noche anterior para averiguar dónde está Doug. Pero mientras más cosas descubren, la situación empeora.

Titulo: ¿Qué pasó ayer?
Título original: The hangover
Género: Comedia
Año: 2009
País: Estados Unidos
Director: Todd Phillips
Protagonistas: Bradley Cooper, Ed Helms, Zach Galifianakis
Productores: Todd Phillips, Dan Goldberg
Guión: Jon Lucas, Scott Moore
Format : AVI
Format/Info : Audio Video Interleave
File size : 705 MiB
Duration : 1h 39mn
Overall bit rate : 988 Kbps
Movie name : The Hangover –
Original source form/Name : THE_HANGOVER
Video
Format : MPEG-4 Visual
Format profile : Simple@L3
Codec ID : XVID
Codec ID/Hint : XviD
Duration : 1h 39mn
Bit rate : 879 Kbps
Width : 704 pixels
Height : 296 pixels
Stream size : 627 MiB (89%)
Writing library : XviD 1.1.2 (UTC 2006-11-01)

Audio
ID : 1
Format : MPEG Audio
Format version : Version 1
Format profile : Layer 3
Codec ID/Hint : MP3
Duration : 1h 39mn
Bit rate mode : Constant
Bit rate : 96.0 Kbps
Channel(s) : 2 channels
Sampling rate : 48.0 KHz
Compression mode : Lossy
Stream size : 68.5 MiB (10%)
Alignment : Aligned on interleaves
Interleave, duration : 24 ms (0.58 video frame)

Algunas imagenes para que vean lo loco que es esta peli…………

http://linkurl.pl/?http://www.mediafire.com/?0quvsf0idpe9ghl

http://linkurl.pl/?http://www.mediafire.com/?kj4esvejjgbbsrc

http://linkurl.pl/?http://www.mediafire.com/?0fombge7fq169ff

http://linkurl.pl/?http://www.mediafire.com/?sm0ml4dm6umlgex

dijo:

Descargar los cuatro link ey descomprimilo en una misma carpeta y luego disfruta de la peli…………..

VN:F
Rating: 0.0/10 (0 votes cast)
VN:F
Rating: 0 (from 0 votes)
Categories: Peliculas Tags: , , ,

  1. fred
    Lunes, 7 de mayo de 2012 a las 09:25 | #1

    y la contraseña??

    VA:F [1.9.20_1166]
    Rating: 5.0/5 (1 vote cast)
    VA:F [1.9.20_1166]
    Rating: 0 (from 0 votes)


cuatro × = 32