Inicio > Peliculas > Un Show Más – El Lobo Zorrillo [Latino] [TVrip]

Un Show Más – El Lobo Zorrillo [Latino] [TVrip]

Martes, 29 de mayo de 2012 Dejar un comentario Ir a comentarios






dijo:

Benson manda que Mordecai y Rigby jueguen el "Bingo-Animal" , en ese entonces solo les faltaba un Zorrillo atropellado , luego ellos lo encuentran y terminan el Bingo , pero cuando Rigby se acerca a el y este le rocia un chorro transformando a Rigby en un Zorrillo, pero Mordecai y Rigby se enteran que la cura es jugo de Tomate y una ducha , ya en la casa ahi viven un enfrentamiento con el Zorrillo y terminan vaciando la lata y se vuelven normales.

dijo:

General
Complete name : 2×27.reg.show.tv.xvid-cristhop3r.avi
Format : AVI
Format/Info : Audio Video Interleave
File size : 84.6 MiB
Duration : 11mn 19s
Overall bit rate : 1 045 Kbps
Writing library : VirtualDub build 32842/release

Video
ID : 0
Format : MPEG-4 Visual
Format profile : Advanced Simple@L5
Format settings, BVOP : 2
Format settings, QPel : No
Format settings, GMC : No warppoints
Format settings, Matrix : Default (H.263)
Muxing mode : Packed bitstream
Codec ID : XVID
Codec ID/Hint : XviD
Duration : 11mn 19s
Bit rate : 907 Kbps
Width : 640 pixels
Height : 480 pixels
Display aspect ratio : 4:3
Frame rate : 25.000 fps
Color space : YUV
Chroma subsampling : 4:2:0
Bit depth : 8 bits
Scan type : Progressive
Compression mode : Lossy
Bits/(Pixel*Frame) : 0.118
Stream size : 73.4 MiB (87%)
Writing library : XviD 64

Audio
ID : 1
Format : MPEG Audio
Format version : Version 1
Format profile : Layer 3
Mode : Joint stereo
Mode extension : MS Stereo
Codec ID : 55
Codec ID/Hint : MP3
Duration : 11mn 19s
Bit rate mode : Constant
Bit rate : 128 Kbps
Channel(s) : 2 channels
Sampling rate : 48.0 KHz
Compression mode : Lossy
Stream size : 10.4 MiB (12%)
Alignment : Split accross interleaves
Interleave, duration : 40 ms (1.00 video frame)
Interleave, preload duration : 500 ms



DESCARGA

VN:F
Rating: 1.0/10 (1 vote cast)
VN:F
Rating: 0 (from 0 votes)
Un Show Más - El Lobo Zorrillo , 1.0 out of 10 based on 1 rating un show mas descargar latino, lobo zorrillo, peliculas de un show mas, un show mas el lobo zorrillo, comics de un show mas, historietas de un show mas, el lobo zorrillo, un show mas comic, comic de un show mas, comiquitas sin plugui
Categories: Peliculas Tags: , ,

  1. Sin comentarios aún.


− 2 = cinco